Gaki no Tsukai 1989-2013 [MEGA]

ダウンタウンのガキの使いやあらへんで!!
A Japanese variety show hosted by the popular Japanese owarai duo, Downtown
105 posts
unos wrote:
ErnieYoung wrote:
The Pixel Aspect Ratio Data of your MP4 file is wrong. :shake:

The correct Pixel Aspect Ratio is 1:1.

The Video Resolution of your MP4 file is 1280x720 (16:9).
The Pixel Aspect Ratio of your MP4 file is 16:9.

And therefore the Display Aspect Ratio of your MP4 file is...
16x16:9x9=256:81 about 3.16:1

And I recommend that you make file size less than 4GB for FAT32 file system. ;)

oh..it's so bad? i want ask you about this, what software and settings do you use to encode, but...
i used Avidemux, just mistake with pixel aspect ratio. sorry


Unos, once your new version is re-uploaded let me know. I'm going to post a link to yours on my other thread.
shikigami wrote:
ErnieYoung wrote:
oh..it's so bad? i want ask you about this, what software and settings do you use to encode, but...
i used Avidemux, just mistake with pixel aspect ratio. sorry


Hope I don't sound like a douche but noone uses fat32 anymore, all the major non-windows OS systems support the more common NTFS so there should be no reason to be using fat32 unless your PC is from 2000.

The only time I usually see fat32 is on pen drives but hopefully people are smart enough to reformat it to ntfs.

My suggestion considered that I/someone used this file on other than a computer. :!:
For example, when I/someone watch this file on TV by PS3.
Image
unos wrote:
ErnieYoung wrote:
The Pixel Aspect Ratio Data of your MP4 file is wrong. :shake:

The correct Pixel Aspect Ratio is 1:1.

The Video Resolution of your MP4 file is 1280x720 (16:9).
The Pixel Aspect Ratio of your MP4 file is 16:9.

And therefore the Display Aspect Ratio of your MP4 file is...
16x16:9x9=256:81 about 3.16:1

And I recommend that you make file size less than 4GB for FAT32 file system. ;)

oh..it's so bad? i want ask you about this, what software and settings do you use to encode, but...
i used Avidemux, just mistake with pixel aspect ratio. sorry


You can use avidemux, just need to setup the encoder well. :!:
Image
Gaki no Tsukai #SP (2014.12.31) - No-Laughing Prison Batsu Game 4.24Gb

Media Info
General
Complete name : F:\GnT\2014 (1186-1235)\Gaki no Tsukai #SP (2014.12.31) - No-Laughing Prison Batsu Game.mp4
Format : MPEG-4
Format profile : Base Media / Version 2
Codec ID : mp42
File size : 4.24 GiB
Duration : 4h 57mn
Overall bit rate mode : Variable
Overall bit rate : 2 042 Kbps
Writing application : TMPGEnc Video Mastering Works 5 Version. 5.0.6.38

Video
ID : 2
Format : AVC
Format/Info : Advanced Video Codec
Format profile : High@L3.1
Format settings, CABAC : Yes
Format settings, ReFrames : 3 frames
Codec ID : avc1
Codec ID/Info : Advanced Video Coding
Duration : 4h 57mn
Source duration : 4h 57mn
Bit rate mode : Constant
Bit rate : 1 846 Kbps
Nominal bit rate : 2 000 Kbps / 2 000 Kbps
Width : 1 280 pixels
Height : 720 pixels
Display aspect ratio : 16:9
Frame rate mode : Constant
Frame rate : 29.970 fps
Standard : NTSC
Color space : YUV
Chroma subsampling : 4:2:0
Bit depth : 8 bits
Scan type : Progressive
Bits/(Pixel*Frame) : 0.067
Stream size : 3.83 GiB (90%)
Source stream size : 3.83 GiB (90%)
Writing library : x264 core 114
Encoding settings : cabac=1 / ref=3 / deblock=1:0:0 / analyse=0x3:0x113 / me=hex / subme=7 / psy=1 / psy_rd=1.00:0.00 / mixed_ref=1 / me_range=16 / chroma_me=1 / trellis=1 / 8x8dct=1 / cqm=2 / deadzone=21,11 / fast_pskip=1 / chroma_qp_offset=-2 / threads=18 / sliced_threads=0 / slices=1 / nr=0 / decimate=1 / interlaced=0 / constrained_intra=0 / bframes=3 / b_pyramid=0 / b_adapt=1 / b_bias=0 / direct=1 / weightb=1 / open_gop=0 / weightp=2 / keyint=250 / keyint_min=25 / scenecut=40 / intra_refresh=0 / rc_lookahead=40 / rc=cbr / mbtree=1 / bitrate=2000 / ratetol=1.0 / qcomp=0.60 / qpmin=3 / qpmax=69 / qpstep=4 / vbv_maxrate=2000 / vbv_bufsize=1998 / nal_hrd=cbr / ip_ratio=1.40 / aq=1:1.00
Color primaries : BT.709
Transfer characteristics : BT.709
Matrix coefficients : BT.709
Color range : Limited

Audio
ID : 1
Format : AAC
Format/Info : Advanced Audio Codec
Format profile : LC
Codec ID : 40
Duration : 4h 57mn
Bit rate mode : Variable
Bit rate : 192 Kbps
Maximum bit rate : 576 Kbps
Channel(s) : 2 channels
Channel positions : Front: L R
Sampling rate : 48.0 KHz
Compression mode : Lossy
Stream size : 409 MiB (9%)

if someone needed :)
unos wrote:
Gaki no Tsukai #SP (2014.12.31) - No-Laughing Prison Batsu Game 4.24Gb

Media Info
General
Complete name : F:\GnT\2014 (1186-1235)\Gaki no Tsukai #SP (2014.12.31) - No-Laughing Prison Batsu Game.mp4
Format : MPEG-4
Format profile : Base Media / Version 2
Codec ID : mp42
File size : 4.24 GiB
Duration : 4h 57mn
Overall bit rate mode : Variable
Overall bit rate : 2 042 Kbps
Writing application : TMPGEnc Video Mastering Works 5 Version. 5.0.6.38

Video
ID : 2
Format : AVC
Format/Info : Advanced Video Codec
Format profile : High@L3.1
Format settings, CABAC : Yes
Format settings, ReFrames : 3 frames
Codec ID : avc1
Codec ID/Info : Advanced Video Coding
Duration : 4h 57mn
Source duration : 4h 57mn
Bit rate mode : Constant
Bit rate : 1 846 Kbps
Nominal bit rate : 2 000 Kbps / 2 000 Kbps
Width : 1 280 pixels
Height : 720 pixels
Display aspect ratio : 16:9
Frame rate mode : Constant
Frame rate : 29.970 fps
Standard : NTSC
Color space : YUV
Chroma subsampling : 4:2:0
Bit depth : 8 bits
Scan type : Progressive
Bits/(Pixel*Frame) : 0.067
Stream size : 3.83 GiB (90%)
Source stream size : 3.83 GiB (90%)
Writing library : x264 core 114
Encoding settings : cabac=1 / ref=3 / deblock=1:0:0 / analyse=0x3:0x113 / me=hex / subme=7 / psy=1 / psy_rd=1.00:0.00 / mixed_ref=1 / me_range=16 / chroma_me=1 / trellis=1 / 8x8dct=1 / cqm=2 / deadzone=21,11 / fast_pskip=1 / chroma_qp_offset=-2 / threads=18 / sliced_threads=0 / slices=1 / nr=0 / decimate=1 / interlaced=0 / constrained_intra=0 / bframes=3 / b_pyramid=0 / b_adapt=1 / b_bias=0 / direct=1 / weightb=1 / open_gop=0 / weightp=2 / keyint=250 / keyint_min=25 / scenecut=40 / intra_refresh=0 / rc_lookahead=40 / rc=cbr / mbtree=1 / bitrate=2000 / ratetol=1.0 / qcomp=0.60 / qpmin=3 / qpmax=69 / qpstep=4 / vbv_maxrate=2000 / vbv_bufsize=1998 / nal_hrd=cbr / ip_ratio=1.40 / aq=1:1.00
Color primaries : BT.709
Transfer characteristics : BT.709
Matrix coefficients : BT.709
Color range : Limited

Audio
ID : 1
Format : AAC
Format/Info : Advanced Audio Codec
Format profile : LC
Codec ID : 40
Duration : 4h 57mn
Bit rate mode : Variable
Bit rate : 192 Kbps
Maximum bit rate : 576 Kbps
Channel(s) : 2 channels
Channel positions : Front: L R
Sampling rate : 48.0 KHz
Compression mode : Lossy
Stream size : 409 MiB (9%)

if someone needed :)

Thank you for your effort and time. :bow:
Image
Hey unos, I've noticed that the episode I asked for earlier is big in file size and in video size as well, so I took the time to encode the video for a bit smaller size video. You could check it if you want.
Image

Kawaii~
Hi all!

Today I've found a hard disk full of Gaki no Tsukai episodes. Most of my videos (before year 2000) are around 200 MB including the very firsts episodes. After year 2000 are 200+ MB (300MB, 400MB, 500MB...). I will compare the videos that I've downloaded from this thread against the videos that I have and if I notice there is a difference in quality I will upload it.

Gaki no Tsukai #0300 (1995.11.26) - .avi 178.3 MB The one from this thread is only 41MB. This has better quality.
Gaki no Tsukai #0379 (1997.08.03) - Genkai Mild Seven only.avi 246.5 MB The one from this thread is only 10 minutes, this is the full episode.
Gaki no Tsukai #0824 (2006.09.24) - 500Quizzies - Tanaka Naoki.mp4 190.7 MB In this thread the video file is missing, there is only the subtitle file. So here it is the video!
Gaki no Tsukai #0916 (2008.08.10) - Artists' Snore Show.mp4 196.6 MB The one from this thread is only 70MB. This has better quality.

Hope you enjoy this videos! More will come! ;)
TouchDown wrote:
Hi all!

Today I've found a hard disk full of Gaki no Tsukai episodes. Most of my videos (before year 2000) are around 200 MB including the very firsts episodes. After year 2000 are 200+ MB (300MB, 400MB, 500MB...). I will compare the videos that I've downloaded from this thread against the videos that I have and if I notice there is a difference in quality I will upload it.

Gaki no Tsukai #0300 (1995.11.26) - .avi 178.3 MB The one from this thread is only 41MB. This has better quality.
Gaki no Tsukai #0379 (1997.08.03) - Genkai Mild Seven only.avi 246.5 MB The one from this thread is only 10 minutes, this is the full episode.
Gaki no Tsukai #0824 (2006.09.24) - 500Quizzies - Tanaka Naoki.mp4 190.7 MB In this thread the video file is missing, there is only the subtitle file. So here it is the video!
Gaki no Tsukai #0916 (2008.08.10) - Artists' Snore Show.mp4 196.6 MB The one from this thread is only 70MB. This has better quality.

Hope you enjoy this videos! More will come! ;)


I was wondering if you have the very first episode in high quality (The episode that started everything). :)
Image

Kawaii~
VideogameDC wrote:
I was wondering if you have the very first episode in high quality (The episode that started everything). :)

Here you have! ;)

As you can notice, the very beginning of my videos has a little image problems (flickering...) but it gets a lot better after a few seconds (not the entire video has good quality).
I'm renaming the files that I upload to match the ones in this thread, because my original files has the japanese title.

Let me know what do you think if it's worth the upload.

That's all I have from 1989.

Gaki no Tsukai #0001 (1989.10.03) - Great doctor san Quiz.mp4 199.2 MB
Gaki no Tsukai #0002 (1989.10.10) - Refugees and Akio Haruo Sakasakotoba quiz.mp4 198.4 MB
Gaki no Tsukai #0003 (1989.10.17) - A researcher.mp4 202.3 MB
Gaki no Tsukai #0004 (1989.10.24) - TV anime.mp4 202.4 MB
Gaki no Tsukai #0005 (1989.10.31) - Shutter-scary story.mp4 202.3 MB
Gaki no Tsukai #0006 (1989.11.07) - Motorcycle gang, kidnapping.mp4 202.3 MB
Gaki no Tsukai #0007 (1989.11.14) - Malik-gluttonous.mp4 202.2 MB
Gaki no Tsukai #0008 (1989.11.21) - Prank phone Fashion.mp4 202.1 MB
Gaki no Tsukai #0009 (1989.11.28) - Children phone consultation room.mp4 202.3 MB
Gaki no Tsukai #0010 (1989.12.05) - Urara and Killala.mp4 202.3 MB

Here is a comparison between files.

Original 320 x 240
Image
Image

My file 544 x 408
Image
Image
TouchDown wrote:
Hi all!

Today I've found a hard disk full of Gaki no Tsukai episodes. Most of my videos (before year 2000) are around 200 MB including the very firsts episodes. After year 2000 are 200+ MB (300MB, 400MB, 500MB...). I will compare the videos that I've downloaded from this thread against the videos that I have and if I notice there is a difference in quality I will upload it.

Gaki no Tsukai #0300 (1995.11.26) - .avi 178.3 MB The one from this thread is only 41MB. This has better quality.
Gaki no Tsukai #0379 (1997.08.03) - Genkai Mild Seven only.avi 246.5 MB The one from this thread is only 10 minutes, this is the full episode.
Gaki no Tsukai #0824 (2006.09.24) - 500Quizzies - Tanaka Naoki.mp4 190.7 MB In this thread the video file is missing, there is only the subtitle file. So here it is the video!
Gaki no Tsukai #0916 (2008.08.10) - Artists' Snore Show.mp4 196.6 MB The one from this thread is only 70MB. This has better quality.
Hope you enjoy this videos! More will come! ;)

Thanks, updated these episodes.
TouchDown wrote:
VideogameDC wrote:
I was wondering if you have the very first episode in high quality (The episode that started everything). :)

Here you have! ;)

As you can notice, the very beginning of my videos has a little image problems (flickering...) but it gets a lot better after a few seconds (not the entire video has good quality).
I'm renaming the files that I upload to match the ones in this thread, because my original files has the japanese title.

Let me know what do you think if it's worth the upload.

That's all I have from 1989.

Gaki no Tsukai #0001 (1989.10.03) - Great doctor san Quiz.mp4 199.2 MB
Gaki no Tsukai #0002 (1989.10.10) - Refugees and Akio Haruo Sakasakotoba quiz.mp4 198.4 MB
Gaki no Tsukai #0003 (1989.10.17) - A researcher.mp4 202.3 MB
Gaki no Tsukai #0004 (1989.10.24) - TV anime.mp4 202.4 MB
Gaki no Tsukai #0005 (1989.10.31) - Shutter-scary story.mp4 202.3 MB
Gaki no Tsukai #0006 (1989.11.07) - Motorcycle gang, kidnapping.mp4 202.3 MB
Gaki no Tsukai #0007 (1989.11.14) - Malik-gluttonous.mp4 202.2 MB
Gaki no Tsukai #0008 (1989.11.21) - Prank phone Fashion.mp4 202.1 MB
Gaki no Tsukai #0009 (1989.11.28) - Children phone consultation room.mp4 202.3 MB
Gaki no Tsukai #0010 (1989.12.05) - Urara and Killala.mp4 202.3 MB

Here is a comparison between files.

Original 320 x 240
Image
Image

My file 544 x 408
Image
Image


Definetely they are in great quality. Probably the ones by unos were downloaded from Pandora.tv because I think I saw them there.
Anyway, thanks for providing them. :)
Image

Kawaii~
VideogameDC wrote:
Definetely they are in great quality. Probably the ones by unos were downloaded from Pandora.tv because I think I saw them there.
Anyway, thanks for providing them. :)

UPLOADING episodes 001-400 downloaded from this thread.
about 1-10 episodes, I think I saw them in a certain topic, someone posted the like remastered version, but I do not remember what the topic was.
if you think they are better then I will replace these episodes.
- added Gaki no Tsukai #0531 (2000.10.08) - Cosplay Bus 4 hardsub
unos wrote:
VideogameDC wrote:
Definetely they are in great quality. Probably the ones by unos were downloaded from Pandora.tv because I think I saw them there.
Anyway, thanks for providing them. :)

UPLOADING episodes 001-400 downloaded from this thread.
about 1-10 episodes, I think I saw them in a certain topic, someone posted the like remastered version, but I do not remember what the topic was.
if you think they are better then I will replace these episodes.
- added Gaki no Tsukai #0531 (2000.10.08) - Cosplay Bus 4 hardsub


I don't think there was a remastered Cosplay Bus 4 video. and even that you have a good quality version of it.
Image

Kawaii~
This needs to be stickied!
added Gaki no Tsukai #SP (2006.12.31) - No-Laughing Police Batsu Game 5.03Gb
Enhanced Subs (update - small fixes, sorry)
encode from this thread http://www.gaki-no-tsukai.com/viewtopic.php?f=77&t=5884 (Thanks Thimble).
Screeshots
originalImage Image

Media Info
General
Complete name : D:\Gaki no Tsukai #SP (2006.12.31) - Police Batsu Game.mp4
Format : MPEG-4
Format profile : Base Media / Version 2
Codec ID : mp42
File size : 5.03 GiB
Duration : 3h 9mn
Overall bit rate mode : Variable
Overall bit rate : 3 804 Kbps
Writing application : TMPGEnc Video Mastering Works 5 Version. 5.0.6.38

Video
ID : 2
Format : AVC
Format/Info : Advanced Video Codec
Format profile : High@L3.0
Format settings, CABAC : Yes
Format settings, ReFrames : 3 frames
Codec ID : avc1
Codec ID/Info : Advanced Video Coding
Duration : 3h 9mn
Bit rate mode : Constant
Bit rate : 3 608 Kbps
Nominal bit rate : 4 000 Kbps / 4 000 Kbps
Width : 720 pixels
Height : 480 pixels
Display aspect ratio : 4:3
Original display aspect rat : 4:3
Frame rate mode : Constant
Frame rate : 29.970 fps
Standard : NTSC
Color space : YUV
Chroma subsampling : 4:2:0
Bit depth : 8 bits
Scan type : MBAFF
Scan order : Top Field First
Bits/(Pixel*Frame) : 0.348
Stream size : 4.77 GiB (95%)
Writing library : x264 core 114
Encoding settings : cabac=1 / ref=3 / deblock=1:0:0 / analyse=0x3:0x113 / me=hex / subme=7 / psy=1 / psy_rd=1.00:0.00 / mixed_ref=1 / me_range=16 / chroma_me=1 / trellis=1 / 8x8dct=1 / cqm=2 / deadzone=21,11 / fast_pskip=1 / chroma_qp_offset=-2 / threads=18 / sliced_threads=0 / slices=1 / nr=0 / decimate=1 / interlaced=tff / constrained_intra=0 / bframes=3 / b_pyramid=0 / b_adapt=1 / b_bias=0 / direct=1 / weightb=1 / open_gop=0 / weightp=0 / keyint=250 / keyint_min=25 / scenecut=40 / intra_refresh=0 / rc_lookahead=40 / rc=cbr / mbtree=1 / bitrate=4000 / ratetol=1.0 / qcomp=0.60 / qpmin=3 / qpmax=69 / qpstep=4 / vbv_maxrate=4000 / vbv_bufsize=3997 / nal_hrd=cbr / ip_ratio=1.40 / aq=1:1.00
Color primaries : BT.601 NTSC
Transfer characteristics : BT.601
Matrix coefficients : BT.601
Color range : Limited

Audio
ID : 1
Format : AAC
Format/Info : Advanced Audio Codec
Format profile : LC
Codec ID : 40
Duration : 3h 9mn
Bit rate mode : Variable
Bit rate : 192 Kbps
Maximum bit rate : 576 Kbps
Channel(s) : 2 channels
Channel positions : Front: L R
Sampling rate : 48.0 KHz
Compression mode : Lossy
Stream size : 260 MiB (5%)
105 posts

Who is online

In total there are 63 users online :: 2 registered, 1 hidden and 60 guests (based on users active over the past 30 minutes)
Most users ever online was 1241 on 13.06.2012, 07:37

Users browsing this forum: Apoek, Hajime_Saito and 60 guests